<?xml version="1.0" standalone="no"?>
<!DOCTYPE svg PUBLIC "-//W3C//DTD SVG 1.1//EN" "http://www.w3.org/Graphics/SVG/1.1/DTD/svg11.dtd" >
<svg xmlns="http://www.w3.org/2000/svg">
<metadata>Generated by IcoMoon</metadata>
<defs>
<font id="icomoon" horiz-adv-x="1024">
<font-face units-per-em="1024" ascent="960" descent="-64" />
<missing-glyph horiz-adv-x="1024" />
<glyph unicode="&#x20;" horiz-adv-x="512" d="" />
<glyph unicode="&#xe900;" glyph-name="line" horiz-adv-x="1075" d="M544.3 960c-292.746 0-531-195.65-531-436.1 0-215.564 188.942-396.065 444.1-430.2 17.294-3.773 40.746-11.544 46.7-26.5 5.354-13.588 3.491-34.884 1.7-48.6 0 0-6.156-37.921-7.5-46-2.31-13.588-10.652-53.066 46-28.9 56.678 24.166 305.704 182.139 417.1 311.9 76.948 85.396 113.8 172.068 113.8 268.3 0 240.45-238.108 436.1-530.9 436.1zM197.8 640.5h37.3c5.7 0 10.3-4.728 10.3-10.5v-185.7h101.2c5.71 0 10.3-4.63 10.3-10.4v-37.7c0-5.775-4.59-10.4-10.3-10.4h-148.8c-5.721 0-10.3 4.722-10.3 10.4v233.8c0 5.772 4.59 10.5 10.3 10.5zM399.2 640.5h37.2c5.71 0 10.3-4.648 10.3-10.4v-233.9c0-5.765-4.59-10.4-10.3-10.4h-37.2c-5.71 0-10.4 4.635-10.4 10.4v233.9c0 5.752 4.69 10.4 10.4 10.4zM493.3 640.5h37.2c3.471-0.195 6.639-1.727 8.6-4.7l106-144.7v139c0 5.752 4.691 10.4 10.4 10.4h37.2c5.724 0 10.3-4.648 10.3-10.4v-233.9c0-5.765-4.576-10.4-10.3-10.4h-37.2c-3.328 0-6.595 1.671-8.5 4.4l-106.2 144.9v-138.9c0-5.765-4.576-10.4-10.3-10.4h-37.2c-5.71 0-10.4 4.635-10.4 10.4v233.9c0 5.752 4.69 10.4 10.4 10.4zM749.6 640.5h148.8c5.709 0 10.3-4.728 10.3-10.5v-37.6c0-5.783-4.591-10.5-10.3-10.5h-101.2v-39.5h101.2c5.709 0 10.3-4.728 10.3-10.5v-37.6c0-5.772-4.591-10.5-10.3-10.5h-101.2v-39.5h101.2c5.709 0 10.3-4.64 10.3-10.4v-37.7c0-5.765-4.591-10.4-10.3-10.4h-148.8c-5.704 0-10.3 4.737-10.3 10.4v233.8c0 5.675 4.586 10.5 10.3 10.5z" />
<glyph unicode="&#xe901;" glyph-name="instagram" d="M512 867.8c136.801 0 153.001-0.6 206.802-3 49.997-2.2 77-10.6 94.996-17.601 23.803-9.2 41.001-20.4 58.803-38.2 17.997-18 29-35 38.2-58.8 6.999-18 15.396-45.2 17.597-95 2.401-54 3-70.2 3-206.8 0-136.802-0.599-153.001-3-206.802-2.202-49.997-10.598-77-17.597-94.996-9.201-23.803-20.403-41.001-38.2-58.803-18.002-17.997-35-29-58.803-38.2-17.997-6.999-45.199-15.396-94.996-17.597-54.001-2.401-70.2-3-206.802-3-136.8 0-153 0.599-206.8 3-50 2.202-77 10.598-95 17.597-23.8 9.201-41 20.403-58.8 38.2-18 18.002-29 35-38.2 58.803-7 17.997-15.4 45.199-17.6 94.996-2.4 54.001-3 70.2-3 206.802 0 136.8 0.6 153 3 206.8 2.2 50 10.6 77 17.6 95 9.2 23.8 20.4 41 38.2 58.8 18 18 35 29 58.8 38.2 18 7 45.2 15.4 95 17.601 53.8 2.4 70 3 206.8 3zM512 960c-139 0-156.4-0.6-211-3-54.4-2.4-91.8-11.2-124.2-23.8-33.8-13.2-62.4-30.6-90.8-59.2-28.6-28.4-46-57-59.2-90.6-12.6-32.6-21.4-69.8-23.8-124.2-2.4-54.8-3-72.2-3-211.2 0-138.998 0.6-156.401 3-211 2.4-54.4 11.2-91.802 23.8-124.201 13.2-33.797 30.6-62.397 59.2-90.798 28.4-28.401 57-46.003 90.6-59.003 32.6-12.6 69.8-21.396 124.2-23.798 54.6-2.401 72-3 211-3 138.998 0 156.401 0.599 211.001 3 54.4 2.401 91.802 11.197 124.201 23.798 33.597 13 62.198 30.602 90.598 59.003s45.998 57.001 58.998 90.598c12.6 32.599 21.402 69.801 23.803 124.201 2.401 54.6 3 71.997 3 211 0 139-0.599 156.4-3 211-2.401 54.4-11.203 91.8-23.803 124.2-12.595 34-29.998 62.6-58.598 91-28.401 28.4-57.001 46-90.598 59-32.599 12.6-69.801 21.4-124.201 23.8-54.799 2.6-72.202 3.2-211.2 3.2zM512 711c-145.2 0-263-117.8-263-263 0-145.198 117.8-262.999 263-262.999 145.198 0 262.999 117.801 262.999 262.999 0 145.2-117.801 263-262.999 263zM512 277.402c-94.2 0-170.6 76.401-170.6 170.598 0 94.2 76.4 170.6 170.6 170.6 94.198 0 170.598-76.4 170.598-170.6 0-94.198-76.401-170.598-170.598-170.598zM846.802 721.4c0-34-27.602-61.4-61.404-61.4-33.997 0-61.399 27.6-61.399 61.4 0 34 27.602 61.4 61.399 61.4 33.802 0 61.404-27.6 61.404-61.4z" />
<glyph unicode="&#xe902;" glyph-name="youtube" horiz-adv-x="1280" d="M1267.251 704c0 0-12.499 88.25-51.002 127-48.749 51-103.251 51.25-128.25 54.25-179.002 13-447.75 13-447.75 13h-0.5c0 0-268.749 0-447.75-13-25-3-79.5-3.25-128.25-54.25-38.5-38.75-50.75-127-50.75-127s-13-103.75-13-207.25v-97c0-103.5 12.75-207.251 12.75-207.251s12.5-88.25 50.75-127.002c48.75-50.995 112.75-49.248 141.25-54.746 102.5-9.754 435.25-12.749 435.25-12.749s268.998 0.499 448 13.248c24.998 3.002 79.501 3.251 128.25 54.246 38.502 38.752 51.002 127.002 51.002 127.002s12.749 103.501 12.749 207.251v97c0 103.5-12.749 207.25-12.749 207.25zM507.75 281.997v359.753l345.748-180.5-345.748-179.253z" />
<glyph unicode="&#xe903;" glyph-name="facebook" d="M1024 448c0 282.77-229.228 512-512 512-282.77 0-512-229.23-512-512 0-255.549 187.23-467.369 432-505.779v357.78h-130v147.999h130v112.8c0 128.32 76.44 199.2 193.388 199.2 56.003 0 114.611-10 114.611-10v-126h-64.558c-63.601 0-83.441-39.47-83.441-80v-96h141.998l-22.697-147.999h-119.301v-357.78c244.772 38.41 432 250.23 432 505.779z" />
<glyph unicode="&#xe904;" glyph-name="account" horiz-adv-x="796" d="M398.222 952.889c-121.243 0-220.444-99.202-220.444-220.444s99.202-220.444 220.444-220.444c121.243 0 220.444 99.201 220.444 220.444s-99.202 220.444-220.444 220.444zM398.222 867.556c75.125 0 135.111-59.987 135.111-135.111s-59.986-135.111-135.111-135.111c-75.125 0-135.111 59.986-135.111 135.111s59.986 135.111 135.111 135.111zM398.222 455.111c-217.095 0-394.496-174.931-398.222-391.222-0.004-0.227-0.007-0.495-0.007-0.763 0-17.12 10.082-31.886 24.634-38.682l0.262-0.11c113.67-52.166 240.248-81.222 373.333-81.222 133.073 0 259.564 29.068 373.222 81.222 14.813 6.907 24.896 21.672 24.896 38.792 0 0.268-0.002 0.536-0.007 0.803l0.001-0.040c-3.714 216.299-181.012 391.222-398.111 391.222zM398.222 369.778c161.106 0 288.653-122.178 306.444-278.333-94.841-38.947-197.401-63-306.444-63-109.062 0-211.702 24.041-306.556 63 17.799 156.151 145.452 278.333 306.556 278.333z" />
<glyph unicode="&#xe905;" glyph-name="bag" d="M512 952.889c-121.243 0-220.444-99.202-220.444-220.444v-28.444h-87.111c-48.769 0-90.34-37.499-95.444-86l-59.889-568.889c-5.895-55.992 39.143-106 95.444-106h734.889c56.302 0 101.342 50.008 95.444 106l-59.889 568.889c-5.103 48.505-46.677 86-95.444 86h-87.111v28.444c0 121.244-99.203 220.444-220.444 220.444zM512 867.556c75.122 0 135.111-59.987 135.111-135.111v-28.444h-270.222v28.444c0 75.125 59.986 135.111 135.111 135.111zM203.333 618.667c0.35 0.029 0.747 0 1.111 0h87.111v-57.222c-10.898-10.986-17.778-25.983-17.778-42.333 0-32.877 27.568-60.444 60.444-60.444s60.444 27.568 60.444 60.444c0 16.35-6.879 31.347-17.778 42.333v57.222h270.222v-57.222c-10.899-10.986-17.778-25.984-17.778-42.333 0-32.875 27.568-60.444 60.444-60.444 32.884 0 60.444 27.553 60.444 60.444 0 16.358-6.88 31.349-17.778 42.333v57.222h87.111c5.811 0 9.947-3.773 10.556-9.556l59.889-568.889c0.736-6.984-3.528-11.778-10.556-11.778h-734.889c-7.027 0-11.291 4.794-10.556 11.778l59.889 568.889c0.571 5.425 4.194 9.12 9.444 9.556z" />
<glyph unicode="&#xe906;" glyph-name="search" d="M412.5 944c-218.381 0-396.5-178.119-396.5-396.5s178.118-396.375 396.5-396.375c91.64 0 172.238 36.468 239.5 89l274-274.125c8.692-8.721 20.716-14.118 34-14.118s25.308 5.396 33.999 14.116l0.001 0.001c8.721 8.692 14.118 20.716 14.118 34s-5.396 25.308-14.116 33.999l-274.126 274.001c52.532 67.262 89 147.86 89 239.5 0 218.382-177.993 396.5-396.375 396.5zM412.5 848c166.5 0 300.375-134.001 300.375-300.5s-133.875-300.375-300.375-300.375c-166.499 0-300.5 133.875-300.5 300.375s134.001 300.5 300.5 300.5z" />
<glyph unicode="&#xe907;" glyph-name="earth" horiz-adv-x="1044" d="M528.458 42.654c-56.064 0-108.761 10.637-158.091 31.914-49.328 21.277-92.238 50.151-128.725 86.624s-65.375 79.364-86.666 128.672c-21.283 49.31-31.925 101.992-31.925 158.048 0 56.064 10.638 108.761 31.915 158.091s50.151 92.238 86.624 128.725c36.473 36.487 79.364 65.376 128.672 86.666 49.31 21.284 101.992 31.925 158.048 31.925 56.064 0 108.761-10.638 158.091-31.915s92.238-50.151 128.725-86.624c36.487-36.473 65.376-79.364 86.667-128.672 21.283-49.31 31.924-101.992 31.924-158.048 0-56.064-10.637-108.761-31.914-158.091s-50.151-92.238-86.624-128.725c-36.473-36.487-79.364-65.376-128.672-86.667-49.308-21.283-101.99-31.924-158.048-31.924zM483.338 92.541v86.241c-24.662 0-45.447 8.97-62.358 26.911-16.904 17.943-25.354 39.219-25.354 63.83v45.707l-214.977 214.974c-3.008-13.674-5.291-27.32-6.848-40.937-1.558-13.611-2.336-27.402-2.336-41.376 0-90.739 29.565-169.982 88.694-237.728 59.128-67.748 133.521-106.955 223.179-117.623zM792.011 206.098c30.47 33.315 53.639 70.773 69.503 112.374 15.858 41.599 23.788 84.822 23.788 129.663 0 73.906-20.21 141.206-60.629 201.9-40.428 60.692-94.718 104.849-162.869 132.469v-19.744c0-24.526-8.456-45.759-25.367-63.702-16.902-17.94-37.685-26.911-62.347-26.911h-90.751v-90.743c0-12.208-4.594-22.264-13.781-30.165-9.196-7.899-19.788-11.85-31.777-11.85h-87.861v-91.404h269.867c12.21 0 22.264-4.485 30.165-13.459 7.901-8.968 11.852-19.497 11.852-31.584v-133.419h44.863c20.195 0 38.058-5.892 53.588-17.674 15.532-11.79 26.116-27.040 31.756-45.75z" />
<glyph unicode="&#xe908;" glyph-name="handshake" horiz-adv-x="1044" d="M515.26 92.301c4.919 0 10.172 1.096 15.753 3.285 5.577 2.183 10.060 5.11 13.451 8.78l348.396 349.045c10.062 10.062 17.816 21.021 23.263 32.874 5.439 11.848 8.159 24.246 8.159 37.194 0 13.185-2.72 26.163-8.159 38.935-5.448 12.771-13.201 24.191-23.263 34.261l-178.465 178.454c-10.062 10.069-21.070 17.618-33.024 22.645-11.954 5.035-24.523 7.552-37.706 7.552-12.943 0-25.41-2.517-37.399-7.552-11.989-5.027-22.88-12.576-32.672-22.645l-29.866-29.867 84.351-85.002c8.419-8.86 15.708-19.321 21.866-31.382 6.152-12.067 9.226-24.963 9.226-38.689 0-24.013-8.985-44.827-26.954-62.441s-38.824-26.421-62.56-26.421c-15.317 0-28.363 2.257-39.135 6.773-10.781 4.508-20.625 11.137-29.536 19.882l-79.436 79.682-190.185-190.188c-4.104-4.102-7.139-8.737-9.11-13.898-1.97-5.163-2.955-10.402-2.955-15.712 0-10.346 3.365-18.817 10.090-25.41 6.728-6.59 15.143-9.888 25.248-9.888 5.597 0 10.967 1.274 16.108 3.82 5.14 2.54 9.409 5.503 12.8 8.897l141.867 141.867 34.134-34.134-141.218-140.8c-4.102-4.375-7.139-9.173-9.11-14.399-1.962-5.22-2.943-10.51-2.943-15.872 0-9.63 3.541-17.986 10.623-25.068 7.084-7.082 15.44-10.623 25.068-10.623 5.362 0 10.613 1.090 15.755 3.273 5.14 2.191 9.409 5.118 12.8 8.78l146.784 146.794 34.132-34.134-146.133-145.727c-3.391-3.662-6.25-8.225-8.575-13.685-2.327-5.462-3.488-10.99-3.488-16.587 0-9.63 3.543-17.983 10.633-25.068 7.084-7.082 15.438-10.623 25.068-10.623 5.353 0 10.424 0.985 15.21 2.953 4.792 1.97 9.241 5.007 13.345 9.11l146.782 146.784 34.134-34.132-146.794-146.784c-4.104-4.104-7.135-8.903-9.099-14.402-1.97-5.503-2.953-10.576-2.953-15.221 0-10.781 3.32-19.356 9.961-25.727 6.65-6.371 15.225-9.558 25.729-9.558zM515.324 43.897c-22.145 0-41.505 8.298-58.081 24.895-16.568 16.603-25.264 37.337-26.089 62.198-24.179 1.286-44.374 9.695-60.586 25.225-16.222 15.538-25.018 36.080-26.391 61.622-25.266 1.642-45.695 10.41-61.29 26.305-15.587 15.886-23.929 36.11-25.025 60.672-24.668 1.364-45.328 9.705-61.983 25.022-16.661 15.319-24.992 35.013-24.992 59.083 0 11.264 2.254 22.551 6.763 33.858 4.508 11.299 10.816 21.127 18.922 29.481l224.981 224.983 108.716-108.716c5.419-5.419 11.583-9.796 18.495-13.13 6.912-3.336 14.094-5.003 21.547-5.003 10.070 0 19.327 4.157 27.775 12.47 8.456 8.313 12.683 17.695 12.683 28.148 0 5.526-1.45 11.225-4.352 17.099-2.902 5.882-7.057 11.667-12.468 17.355l-149.666 149.665c-10.062 10.069-21.137 17.618-33.227 22.645-12.087 5.035-24.723 7.552-37.908 7.552-12.95 0-25.281-2.517-36.993-7.552-11.719-5.027-22.587-12.526-32.606-22.496l-148.662-148.737c-10.503-10.502-18.119-21.883-22.848-34.142-4.729-12.253-7.175-25.995-7.339-41.228-0.441-12.771 1.881-25.186 6.965-37.247 5.092-12.061 11.357-23.015 18.795-32.864l-35.616-35.201c-10.937 13.455-20.028 29.7-27.275 48.736s-11.008 38.429-11.285 58.178c-0.27 20.785 3.477 40.546 11.243 59.283 7.765 18.731 18.841 35.289 33.227 49.676l147.531 147.53c14.825 14.827 31.232 25.835 49.215 33.024 17.983 7.196 36.815 10.795 56.49 10.795 19.677 0 38.404-3.598 56.183-10.795 17.777-7.189 34.077-18.197 48.896-33.024l29.876-29.867 29.868 29.867c14.819 14.827 31.152 25.835 49.002 33.024 17.848 7.196 36.61 10.795 56.287 10.795s38.472-3.598 56.383-10.795c17.914-7.189 34.284-18.197 49.109-33.024l177.398-177.398c14.819-14.819 26.141-31.719 33.964-50.698 7.821-18.973 11.733-38.212 11.733-57.717s-3.912-38.148-11.733-55.925c-7.823-17.779-19.145-34.081-33.964-48.908l-348.393-348.383c-8.698-8.974-18.442-15.61-29.237-19.905-10.803-4.289-22.149-6.431-34.038-6.431z" />
<glyph unicode="&#xe909;" glyph-name="leaves" horiz-adv-x="1044" d="M491.891 82.467v330.826h-15.593c-42.775 0-83.079 8.098-120.918 24.289s-71.594 39.332-101.27 69.419c-29.377 30.087-51.655 64.821-66.837 104.202-15.175 39.381-22.763 80.433-22.763 123.156v64h62.667c41.279 0 81.070-8.178 119.372-24.533 38.3-16.349 72.444-39.541 102.431-69.579 23.468-23.908 42.572-50.93 57.313-81.066 14.739-30.145 24.764-61.927 30.069-95.351 5.986 10.93 12.872 21.426 20.65 31.488 7.786 10.070 16.165 19.816 25.131 29.239 30.052 30.036 64.242 53.23 102.57 69.577 38.33 16.357 78.578 24.535 120.748 24.535h62.634v-64c0-42.746-8.032-83.818-24.097-123.222-16.062-39.404-38.844-74.134-68.34-104.192-30.052-30.052-64.096-52.996-102.134-68.831-38.031-15.837-77.818-23.755-119.359-23.755h-13.867v-216.203h-48.407zM492.958 462.776c0 40.911-6.904 79.143-20.713 114.698-13.818 35.555-33.171 66.038-58.059 91.445-24.613 25.686-54.368 45.611-89.27 59.777-34.902 14.172-72.235 21.258-111.999 21.258 0-42.070 6.509-80.949 19.53-116.64s31.975-66.284 56.865-91.777c28.223-30.087 59.099-50.737 92.629-61.952 33.536-11.207 70.541-16.81 111.018-16.81zM540.297 347.085c40.206 0 77.758 6.795 112.66 20.384 34.894 13.597 64.651 33.235 89.27 58.913 24.887 25.137 44.020 55.552 57.397 91.242 13.367 35.69 20.052 74.568 20.052 116.63-40.477 0-78.164-7.082-113.066-21.248-34.894-14.166-64.651-33.913-89.268-59.242-28.936-29.811-49.011-61.657-60.226-95.541-11.213-33.892-16.82-70.937-16.82-111.137z" />
<glyph unicode="&#xe90a;" glyph-name="nature" horiz-adv-x="1044" d="M778.568 595.941l-43.819-39.135c-6.728-6.294-15.315-9.834-25.76-10.625-10.447-0.797-20.238 1.679-29.377 7.424-8.313 5.747-13.292 13.775-14.934 24.087-1.642 10.31-1.176 19.95 1.399 28.916l19.36 66.38-47.915 27.658c-8.591 4.864-14.307 11.837-17.152 20.918s-2.763 18.627 0.246 28.639c2.736 9.458 7.893 16.69 15.466 21.696 7.58 5.006 16.728 7.509 27.445 7.509h56.373l16.82 52.928c3.009 9.294 8.122 17.415 15.34 24.363 7.225 6.948 16.060 10.421 26.507 10.421 10.445 0 19.282-3.474 26.505-10.421 7.219-6.947 12.331-15.068 15.34-24.363l16.822-52.928h55.955c9.572 0 18.432-2.61 26.583-7.829 8.155-5.227 13.738-12.352 16.746-21.376 3.006-9.138 3.291-18.465 0.852-27.98-2.431-9.521-8.159-16.714-17.183-21.578l-49.558-27.658 19.36-65.559c3.285-9.13 4.174-18.878 2.666-29.247-1.501-10.367-6.545-18.559-15.137-24.576-8.86-5.583-18.584-8.018-29.172-7.307-10.582 0.713-19.237 4.215-25.962 10.508l-43.819 39.135zM778.568 653.382c11.54 0 21.264 3.951 29.172 11.85 7.901 7.907 11.852 17.633 11.852 29.174 0 11.543-3.951 21.266-11.852 29.174-7.907 7.901-17.631 11.85-29.172 11.85-11.543 0-21.266-3.949-29.174-11.85-7.901-7.907-11.852-17.631-11.852-29.174 0-11.54 3.951-21.266 11.852-29.174 7.907-7.899 17.631-11.85 29.174-11.85zM558.504 189.381c14-35.121 8.831-68.352-15.51-99.69-24.343-31.345-56.424-47.018-96.246-47.018-20.836 0-39.748 5.376-56.736 16.128-16.982 10.744-30.532 26.812-40.651 48.202-44.089-2.517-83.775 13.619-119.063 48.407-35.278 34.793-52.316 73.961-51.114 117.504-19.968 10.004-35.68 25.674-47.136 47.008-11.463 21.334-17.195 42.177-17.195 62.527 0 43.264 15.89 75.289 47.669 96.076 31.787 20.785 69.369 21.828 112.747 3.125l59.476-23.552c10.455 26.857 26.757 48.124 48.908 63.797s46.957 24.22 74.42 25.643v89.674h42.422v-91.894c30.519-4.045 57.35-18.651 80.49-43.819 23.138-25.158 36.241-50.893 39.305-77.206h92.299v-43.082h-89.674c-2.134-27.185-10.998-51.921-26.593-74.207-15.587-22.295-36.946-38.664-64.074-49.111l26.251-68.512zM332.616 155.163c-2.675 19.2-2.439 39.072 0.702 59.615 3.144 20.537 8.544 40.819 16.204 60.844-19.47-9.415-39.477-15.118-60.021-17.109-20.537-1.999-41.257-1.303-62.155 2.089 1.698-25.926 13.638-49.983 35.817-72.169 22.18-22.18 45.33-33.27 69.452-33.27zM256.967 306.469c28.445 0 58.628 7.371 90.55 22.112 31.914 14.742 56.351 27.994 73.312 39.756l-158.859 66.378c-20.509 8.641-42.086 7.612-64.736-3.082-22.642-10.689-33.963-26.372-33.963-47.051 0-19.862 11.566-37.845 34.699-53.953 23.139-16.105 42.805-24.16 58.997-24.16zM446.749 91.089c23.964 0 43 8.178 57.108 24.533 14.117 16.355 16.988 35.17 8.62 56.447l-66.466 171.071c-17.172-24.447-32.297-49.048-45.375-73.802-13.070-24.754-19.606-54.088-19.606-88.001 0-18.047 5.839-37.603 17.514-58.667 11.678-21.055 27.744-31.582 48.204-31.582zM513.212 302.854c21.496 10.396 37.087 23.882 46.774 40.458 9.677 16.568 14.516 34.755 14.516 54.559 0 27.081-9.748 50.436-29.247 70.070-19.499 19.64-42.789 29.46-69.868 29.46-20.621 0-39.754-5.347-57.397-16.042-17.641-10.695-29.962-26.436-36.96-47.221l95.265-37.911 36.917-93.374z" />
<glyph unicode="&#xe90b;" glyph-name="teacup" d="M192 85.346v48.417h640v-48.417h-640zM337.066 235.502c-40.554 0-74.869 13.756-102.943 41.269-28.082 27.513-42.123 61.209-42.123 101.087v432.822h662.155c17.371 0 32.244-6.062 44.618-18.187s18.561-26.713 18.561-43.765v-142.762c0-17.054-6.187-31.642-18.561-43.766s-27.247-18.186-44.618-18.186h-97.888v-166.156c0-39.879-14.041-73.574-42.123-101.087-28.074-27.513-62.388-41.269-102.943-41.269h-274.135zM337.066 762.264v0zM756.267 592.419h97.888c4.102 0 7.59 1.3 10.463 3.903 2.865 2.597 4.299 5.81 4.299 9.644v142.762c0 3.832-1.434 7.047-4.299 9.642-2.873 2.595-6.361 3.893-10.463 3.893h-97.888v-169.845zM611.201 283.906c25.842 0 48.411 9.466 67.711 28.396s28.948 40.835 28.948 65.716v384.246h-286.036v-46.689l70.4-57.76c0.987-0.711 4.053-6.971 9.193-18.784v-139.487c0-6.279-2.324-11.911-6.975-16.896s-10.67-7.477-18.059-7.477h-147.519c-7.389 0-13.404 2.492-18.047 7.477-4.651 4.985-6.978 10.617-6.978 16.896v139.487c0 2.568 3.062 8.829 9.185 18.784l71.062 57.76v46.689h-143.669v-384.246c0-24.881 9.757-46.787 29.268-65.716 19.513-18.93 41.974-28.396 67.381-28.396h274.135z" />
<glyph unicode="&#xe90c;" glyph-name="basket-fill" horiz-adv-x="1152" d="M992 736c0-53.019-42.981-96-96-96s-96 42.981-96 96c0 53.019 42.981 96 96 96s96-42.981 96-96zM784 163.2h-412.8c-16 0-28.8 6.4-41.6 19.2-9.6 12.8-16 25.6-12.8 41.6l35.2 320c0 28.8 25.6 48 54.4 48h48v16c0 67.2 54.4 124.8 124.8 124.8s124.8-54.4 124.8-124.8v-16h48c28.8 0 51.2-19.2 54.4-48v0s35.2-320 35.2-320c0-16-3.2-32-12.8-41.6s-25.6-19.2-41.6-19.2zM403.2 544c0 0-6.4 0-6.4-6.4l-35.2-320c0 0 0-3.2 0-3.2s0 0 3.2 0h412.8c0 0 3.2 0 3.2 0s0 0 0 3.2l-35.2 320c0 0 0 6.4-6.4 6.4h-48v-32c6.4-6.4 9.6-16 9.6-25.6 0-19.2-16-35.2-35.2-35.2s-35.2 16-35.2 35.2 3.2 19.2 9.6 25.6v32h-153.6v-32c6.4-6.4 9.6-16 9.6-25.6 0-19.2-16-35.2-35.2-35.2s-35.2 16-35.2 35.2 3.2 19.2 9.6 25.6v32h-48zM499.2 592h153.6v16c0 41.6-35.2 76.8-76.8 76.8s-76.8-35.2-76.8-76.8v-16z" />
<glyph unicode="&#xe90d;" glyph-name="cheveron-down" d="M512 307.2c-12.8 0-19.2 0-25.6 12.8l-256 256c-12.8 12.8-12.8 38.4 0 51.2s38.4 12.8 51.2 0l230.4-230.4 230.4 230.4c12.8 12.8 38.4 12.8 51.2 0s12.8-38.4 0-51.2l-256-256c-6.4-6.4-19.2-12.8-25.6-12.8z" />
<glyph unicode="&#xe90e;" glyph-name="cheveron-right" d="M358.4 151.040c-10.24 0-20.48 0-30.72 10.24-15.36 15.36-15.36 40.96 0 56.32l225.28 225.28-225.28 225.28c-15.36 15.36-15.36 40.96 0 56.32s40.96 15.36 56.32 0l256-256c15.36-15.36 15.36-40.96 0-56.32l-256-256c-10.24-10.24-20.48-10.24-30.72-10.24z" />
<glyph unicode="&#xe90f;" glyph-name="cheveron-up" horiz-adv-x="975" d="M731.429 272.457c-9.752 0-14.629 0-19.505 9.752l-224.305 224.305-224.305-224.305c-9.752-9.752-29.257-9.752-39.010 0s-9.752 29.257 0 39.010l243.81 243.81c9.752 9.752 29.257 9.752 39.010 0l243.81-243.81c9.752-9.752 9.752-29.257 0-39.010-4.876-4.876-14.629-9.752-19.505-9.752z" />
<glyph unicode="&#xe910;" glyph-name="close-Icon" d="M768 166.4c-8.533 0-12.8 0-17.067 8.533l-238.933 238.933-238.933-238.933c-8.533-8.533-25.6-8.533-34.133 0s-8.533 25.6 0 34.133l238.933 238.933-238.933 238.933c-8.533 8.533-8.533 25.6 0 34.133s25.6 8.533 34.133 0l238.933-238.933 238.933 238.933c8.533 8.533 25.6 8.533 34.133 0s8.533-25.6 0-34.133l-238.933-238.933 238.933-238.933c8.533-8.533 8.533-25.6 0-34.133-4.267-4.267-12.8-8.533-17.067-8.533z" />
<glyph unicode="&#xe911;" glyph-name="delete-button" d="M678.4 0h-332.8c-64 0-121.6 51.2-128 115.2l-44.8 556.8s0 0-6.4 0c-19.2 0-32 6.4-38.4 25.6s6.4 32 25.6 38.4c12.8 0 32 0 44.8 6.4v0c38.4 0 83.2 12.8 121.6 12.8v12.8c0 70.4 51.2 121.6 121.6 128 44.8 0 96 0 140.8 0 70.4 0 121.6-57.6 121.6-128v-12.8c38.4 0 83.2-6.4 121.6-12.8 0 0 0 0 0 0 12.8 0 32 0 44.8-6.4 19.2 0 32-19.2 25.6-38.4 0-19.2-19.2-32-38.4-25.6 0 0 0 0-6.4 0l-44.8-556.8c0-64-64-115.2-128-115.2zM236.8 684.8l44.8-563.2c0-32 32-57.6 64-57.6h332.8c32 0 64 25.6 64 57.6l44.8 563.2c-38.4 0-76.8 6.4-115.2 12.8 0 0 0 0 0 0-102.4 6.4-211.2 6.4-313.6 0 0 0 0 0 0 0-38.4 0-76.8-6.4-115.2-12.8zM512 768c44.8 0 83.2 0 128 0v0c0 38.4-25.6 64-57.6 64-44.8 0-96 0-140.8 0-32 0-57.6-25.6-57.6-64v0c44.8 0 83.2 0 128 0zM614.4 160v0c-19.2 0-32 12.8-32 32l12.8 384c0 19.2 12.8 32 32 32s32-12.8 32-32l-12.8-384c0-19.2-12.8-32-32-32zM409.6 160c-19.2 0-32 12.8-32 32l-12.8 384c0 19.2 12.8 32 32 32s32-12.8 32-32l12.8-384c0-19.2-12.8-32-32-32v0z" />
<glyph unicode="&#xe912;" glyph-name="eye" horiz-adv-x="975" d="M487.619 311.467c-73.143 0-136.533 63.39-136.533 136.533s63.39 136.533 136.533 136.533 136.533-63.39 136.533-136.533-63.39-136.533-136.533-136.533zM487.619 526.019c-43.886 0-78.019-34.133-78.019-78.019s34.133-78.019 78.019-78.019 78.019 34.133 78.019 78.019-34.133 78.019-78.019 78.019zM487.619 170.057c-170.667 0-316.952 107.276-370.59 273.067 0 4.876 0 9.752 0 19.505 48.762 160.914 199.924 273.067 370.59 273.067s316.952-107.276 370.59-273.067c0-4.876 0-9.752 0-19.505-48.762-160.914-199.924-273.067-370.59-273.067zM175.543 448c43.886-131.657 170.667-219.429 312.076-219.429s263.314 87.771 312.076 219.429c-43.886 131.657-170.667 219.429-312.076 219.429s-263.314-87.771-312.076-219.429z" />
<glyph unicode="&#xe913;" glyph-name="hamburger-menu" horiz-adv-x="975" d="M828.952 165.181h-682.667c-14.629 0-29.257 14.629-29.257 29.257s14.629 29.257 29.257 29.257h682.667c14.629 0 29.257-14.629 29.257-29.257s-14.629-29.257-29.257-29.257zM828.952 418.743h-682.667c-14.629 0-29.257 14.629-29.257 29.257s14.629 29.257 29.257 29.257h682.667c14.629 0 29.257-14.629 29.257-29.257s-14.629-29.257-29.257-29.257zM828.952 672.305h-682.667c-14.629 0-29.257 14.629-29.257 29.257s14.629 29.257 29.257 29.257h682.667c14.629 0 29.257-14.629 29.257-29.257s-14.629-29.257-29.257-29.257z" />
<glyph unicode="&#xe914;" glyph-name="hours" horiz-adv-x="975" d="M487.619 77.41c-204.8 0-370.59 165.79-370.59 370.59s165.79 370.59 370.59 370.59 370.59-165.79 370.59-370.59-165.79-370.59-370.59-370.59zM487.619 760.076c-170.667 0-312.076-141.41-312.076-312.076s141.41-312.076 312.076-312.076 312.076 141.41 312.076 312.076-141.41 312.076-312.076 312.076zM599.771 306.59c-9.752 0-14.629 0-19.505 9.752l-112.152 112.152c-4.876 4.876-9.752 14.629-9.752 19.505v151.162c0 14.629 14.629 29.257 29.257 29.257s29.257-14.629 29.257-29.257v-141.41l107.276-107.276c9.752-9.752 9.752-29.257 0-39.010-4.876-4.876-14.629-9.752-19.505-9.752z" />
<glyph unicode="&#xe915;" glyph-name="link" horiz-adv-x="964" d="M271.059 20.329c-60.235 0-114.447 24.094-150.588 66.259-42.165 42.165-66.259 96.376-66.259 150.588s24.094 114.447 66.259 150.588l72.282 72.282c12.047 12.047 36.141 12.047 48.188 0s12.047-36.141 0-48.188l-72.282-72.282c-30.118-30.118-42.165-66.259-42.165-102.4s12.047-72.282 42.165-102.4c54.212-54.212 150.588-54.212 204.8 0l180.706 180.706c54.212 54.212 54.212 150.588 0 204.8s-24.094 24.094-42.165 30.118c-18.071 6.024-24.094 30.118-18.071 48.188s30.118 24.094 48.188 18.071c24.094-12.047 42.165-24.094 60.235-42.165 42.165-42.165 66.259-96.376 66.259-150.588s-24.094-114.447-66.259-150.588l-180.706-180.706c-42.165-42.165-96.376-66.259-150.588-66.259zM433.694 279.341c0 0-12.047 0-18.071 0-24.094 12.047-42.165 24.094-60.235 42.165-42.165 42.165-66.259 96.376-66.259 150.588s24.094 114.447 66.259 150.588l180.706 180.706c84.329 84.329 222.871 84.329 307.2 0 42.165-42.165 66.259-96.376 66.259-150.588s-24.094-114.447-66.259-150.588l-72.282-72.282c-12.047-12.047-36.141-12.047-48.188 0s-12.047 36.141 0 48.188l72.282 72.282c30.118 30.118 42.165 66.259 42.165 102.4s-12.047 72.282-42.165 102.4c-54.212 54.212-150.588 54.212-204.8 0l-180.706-180.706c-30.118-30.118-42.165-66.259-42.165-102.4s12.047-72.282 42.165-102.4c12.047-12.047 24.094-24.094 42.165-30.118s24.094-30.118 18.071-48.188c-6.024-12.047-18.071-18.071-30.118-18.071z" />
<glyph unicode="&#xe916;" glyph-name="mail" horiz-adv-x="975" d="M789.943 116.419h-604.648c-68.267 0-121.905 53.638-121.905 121.905v424.229c0 68.267 53.638 121.905 121.905 121.905h609.524c68.267 0 121.905-53.638 121.905-121.905v-429.105c0-68.267-53.638-121.905-121.905-121.905zM121.905 550.4v-312.076c0-34.133 29.257-63.39 63.39-63.39h609.524c34.133 0 63.39 29.257 63.39 63.39v312.076l-302.324-185.295c-39.010-24.381-87.771-24.381-126.781 0l-302.324 185.295zM121.905 652.8c0-19.505 9.752-43.886 29.257-53.638l302.324-185.295c19.505-14.629 43.886-14.629 63.39 0l302.324 185.295c19.505 9.752 29.257 29.257 29.257 53.638v9.752c0 34.133-29.257 63.39-63.39 63.39h-599.771c-34.133 0-63.39-29.257-63.39-63.39v-9.752z" />
<glyph unicode="&#xe917;" glyph-name="map" horiz-adv-x="931" d="M581.818 29.091c-9.309 0-23.273 0-32.582 9.309l-195.491 97.745c0 0-9.309 0-13.964 0l-148.945-74.473c-23.273-9.309-46.545-9.309-69.818 0-23.273 13.964-32.582 37.236-32.582 60.509v484.073c0 27.927 13.964 51.2 37.236 65.164l190.836 93.091c18.618 9.309 41.891 9.309 65.164 0l195.491-97.745c0 0 9.309 0 13.964 0l148.945 74.473c23.273 9.309 46.545 9.309 69.818 0 23.273-13.964 32.582-37.236 32.582-60.509v-484.073c0-27.927-13.964-51.2-41.891-65.164l-190.836-93.091c-9.309-4.655-23.273-9.309-32.582-9.309zM349.091 192c9.309 0 23.273 0 32.582-9.309l195.491-97.745c0 0 9.309 0 13.964 0l190.836 93.091c4.655 0 9.309 9.309 9.309 13.964v488.727c0 9.309-4.655 13.964-9.309 13.964 0 0-9.309 0-13.964 0l-148.945-74.473c-18.618-9.309-41.891-9.309-65.164 0l-195.491 97.745c0 0-9.309 0-13.964 0l-190.836-93.091c-4.655 0-9.309-9.309-9.309-13.964v-484.073c0-9.309 4.655-13.964 9.309-13.964 0 0 9.309 0 13.964 0l148.945 74.473c9.309 4.655 23.273 9.309 32.582 9.309zM581.818 168.727c-13.964 0-27.927 13.964-27.927 27.927v321.164c0 13.964 13.964 27.927 27.927 27.927s27.927-13.964 27.927-27.927v-321.164c0-13.964-13.964-27.927-27.927-27.927zM349.091 257.164c-13.964 0-27.927 13.964-27.927 27.927v321.164c0 13.964 13.964 27.927 27.927 27.927s27.927-13.964 27.927-27.927v-321.164c0-13.964-13.964-27.927-27.927-27.927z" />
<glyph unicode="&#xe918;" glyph-name="minus" d="M153.6 486.4h716.8v-76.8h-716.8v76.8z" />
<glyph unicode="&#xe919;" glyph-name="phone" horiz-adv-x="975" d="M789.943 23.771h-92.648c-346.21 0-633.905 287.695-633.905 638.781v92.648c0 68.267 53.638 121.905 121.905 121.905h53.638c34.133 0 63.39-24.381 73.143-58.514l43.886-180.419c9.752-29.257 0-58.514-29.257-78.019l-53.638-39.010c-4.876 0-9.752-9.752-4.876-14.629 48.762-126.781 146.286-224.305 273.067-273.067 4.876 0 9.752 0 14.629 4.876l39.010 53.638c19.505 24.381 48.762 34.133 78.019 29.257l180.419-43.886c34.133-9.752 58.514-39.010 58.514-73.143v-53.638c0-68.267-53.638-121.905-121.905-121.905zM185.295 813.714c-34.133 0-63.39-29.257-63.39-63.39v-92.648c0-321.829 258.438-580.267 580.267-580.267h92.648c34.133 0 63.39 29.257 63.39 63.39v53.638c0 9.752-4.876 14.629-14.629 14.629l-180.419 43.886c-4.876 0-14.629 0-19.505-4.876l-39.010-53.638c-19.505-24.381-53.638-34.133-82.895-24.381-141.41 53.638-253.562 165.79-307.2 307.2-9.752 29.257 0 63.39 24.381 82.895l53.638 39.010c4.876 0 9.752 9.752 4.876 19.505l-43.886 180.419c0 9.752-9.752 14.629-14.629 14.629h-53.638z" />
<glyph unicode="&#xe91a;" glyph-name="plus" d="M550.4 89.6h-76.8v320h-320v76.8h320v320h76.8v-320h320v-76.8h-320v-320z" />
<glyph unicode="&#xe91b;" glyph-name="volume-off" d="M512 48.64c-15.36 0-30.72 5.12-46.080 20.48l-194.56 194.56h-81.92c-56.32 0-97.28 30.72-112.64 81.92-10.24 35.84-15.36 71.68-15.36 112.64s0 76.8 15.36 112.64c15.36 46.080 56.32 81.92 112.64 81.92h81.92l194.56 194.56c20.48 20.48 46.080 25.6 66.56 15.36 25.6-10.24 40.96-30.72 40.96-56.32v-675.84c0-25.6-15.36-46.080-40.96-56.32-10.24 0-15.36 0-25.6 0zM194.56 576c-20.48 0-46.080-10.24-51.2-35.84-10.24-30.72-10.24-61.44-10.24-92.16s0-61.44 10.24-92.16c5.12-25.6 30.72-35.84 51.2-35.84h97.28c10.24 0 15.36 0 20.48-10.24l199.68-199.68v675.84s-199.68-199.68-199.68-199.68c-5.12-5.12-15.36-10.24-20.48-10.24h-97.28zM926.72 320c-10.24 0-15.36 0-20.48 10.24l-76.8 76.8-76.8-76.8c-10.24-10.24-30.72-10.24-40.96 0s-10.24 30.72 0 40.96l76.8 76.8-76.8 76.8c-10.24 10.24-10.24 30.72 0 40.96s30.72 10.24 40.96 0l76.8-76.8 76.8 76.8c10.24 10.24 30.72 10.24 40.96 0s10.24-30.72 0-40.96l-76.8-76.8 76.8-76.8c10.24-10.24 10.24-30.72 0-40.96-5.12-5.12-15.36-10.24-20.48-10.24z" />
<glyph unicode="&#xe91c;" glyph-name="volume-on" d="M512 48.64c-15.36 0-30.72 5.12-46.080 20.48l-194.56 194.56h-81.92c-56.32 0-97.28 30.72-112.64 81.92-10.24 35.84-15.36 71.68-15.36 112.64s0 76.8 15.36 112.64c15.36 46.080 56.32 81.92 112.64 81.92h81.92l194.56 194.56c20.48 20.48 46.080 25.6 66.56 15.36 25.6-10.24 40.96-30.72 40.96-56.32v-675.84c0-25.6-15.36-46.080-40.96-56.32-10.24 0-15.36 0-25.6 0zM194.56 576c-20.48 0-46.080-10.24-51.2-35.84-10.24-30.72-10.24-61.44-10.24-92.16s0-61.44 10.24-92.16c5.12-25.6 30.72-35.84 51.2-35.84h97.28c10.24 0 15.36 0 20.48-10.24l199.68-199.68v675.84s-199.68-199.68-199.68-199.68c-5.12-5.12-15.36-10.24-20.48-10.24h-97.28zM814.080 145.92c-10.24 0-15.36 0-20.48 10.24-10.24 10.24-10.24 30.72 0 40.96 138.24 138.24 138.24 363.52 0 501.76-10.24 10.24-10.24 30.72 0 40.96s30.72 10.24 40.96 0c163.84-163.84 163.84-424.96 0-588.8-5.12-5.12-15.36-10.24-20.48-10.24zM701.44 258.56c-10.24 0-15.36 0-20.48 10.24-10.24 10.24-10.24 30.72 0 40.96 35.84 35.84 56.32 87.040 56.32 138.24s-20.48 102.4-56.32 138.24-10.24 30.72 0 40.96c10.24 10.24 30.72 10.24 40.96 0 46.080-46.080 76.8-112.64 76.8-179.2s-25.6-133.12-76.8-179.2c-5.12-5.12-15.36-10.24-20.48-10.24z" />
<glyph unicode="&#xe91d;" glyph-name="pin-leaf" horiz-adv-x="991" d="M360.788 932.452c15.571-2.9 30.291-8.472 45.033-13.991 1.85-19.679 30.073-12.782 44.062-15.294 9.090-1.633 10.868-5.508 17.814-10.032 6.203-4.041 26.132-12.365 28.817-17.586 2.368-4.597 2.629-14.477 9.953-14.474 3.069 0 5.777 2.961 7.974 3.872 1.962 0.815 0.32-1.536 0.32-1.647v-19.19c0-1.061 1.922-5.432 2.633-6.64 1.311-2.227 5.625-5.412 5.867-6.060 1.235-3.311 1.5-12.989 2.329-17.533 4.516-24.759 15.040-45.322 23.519-68.534 3.201-8.761 5.477-17.915 8.621-26.497 0.185-0.51-0.076-2.058 1.159-1.458 2.669 1.299 9.173 29.905 10.782 34.914 2.695 8.382 6.567 19.916 13.484 25.612 0.7 0.576 2.299 0.822 2.501 1.134 0.601 0.92 2.61 9.055 4.489 12.401 11.386 20.289 29.812 36.15 39.55 58.502 4.099 9.411 5.146 18.049 11.944 26.472 3.046 3.772 7.535 8.457 9.645 1.245 3.386-11.563-2.877-40.724-9.48-51.040-1.695-2.645-3.875-4.149-5.473-6.455-40.92-58.972-76.599-141.36-57.661-214.101 1.12-4.304 2.322-12.513 8.047-11.759 4.407 0.578 10.23 10.666 11.981 14.567 1.024 2.289 3.264 11.419 3.736 11.822 0.373 0.32 4.228-0.059 5.506 0.135 12.083 1.86 18.012 8.747 26.634 15.795 20.926 17.104 43.153 33.466 59.055 55.602 1.572-3.907 0.846-9.188 4.281-12.27 4.373-3.924 8.826 1.847 14.323-3.584 1.496-1.477 1.995-3.717 2.91-4.914 1.483-1.936 4.261 2.717 4.558 4.035 1.457 6.483-2.573 12.059 1.843 18.676 2.005 3.005 12.77 11.070 16.272 13.554 13.236 9.383 25.692 15.395 42.443 11.993 2.811-0.571 12.757-4.95 13.464-4.847 1.037 0.15 14.025 10.197 17.259 11.885 6.227 3.252 13.464 6.101 20.513 3.682 1.922-0.659 4.106-2.993 5.503-3.12 1.847-0.167 5.586 1.221 7.918 1.335 20.12 0.983 42.225-1.209 61.559-6.831 14.795-4.303 40.663-14.197 32.494-34.010-2.471-5.998-11.432-11.44-5.44-17.764 7.868-8.308 36.722-0.354 44.491-8.576 4.734-5.006-0.023-18.422-4.651-22.52-15.7-13.897-65.348-6.763-86.611-8.273-11.802-0.839-24.744-4.784-37.178-5.944-51.203-4.773-131.141 2.534-175.738-23.294-1.698-0.984-8.311-6.256-8.846-6.362s-8.727 2.2-10.607 2.444c-60.935 7.891-78.468-90.713-85.094-134.038-21.253-138.924-9.011-284.93-13.411-425.37-0.601-19.116-0.529-39.936-4.945-58.599-2.183-9.233-6.197-22.941-17.282-11.928-9.464 9.401-11.429 19.671-13.474 32.226-20.259 124.416 31.506 289.501-47.923 395.591-71.135 95.014-174.386 188.145-274.79 251.437-15.867 10.003-32.173 17.804-46.089 30.146-24.876 22.059-77.504 36.067-108.273 54.169-9.571 5.631-29.116 16.889-16.811 29.224-5.603 1.25-10.512 4.272-15.264 7.286v1.324c14.95 6.454 38.632 2.789 51.454 13.881 0.816 0.706 0.614 2.056 1.633 1.997-4.124-11.216 2.097-25.66 15.812-22.043 2.209 0.583 3.64 2.52 4.577 2.767 2.871 0.757 11.485-9.133 15.131-5.871 0.408 0.366 1.232 2.298 0.987 2.643-0.359 0.507-8.951 1.013-10.936 5.314-3.971 8.603 17.656 18.937 26.711 12.077 2.198-1.666 2.566-4.932 5.43-5.839 5.921-1.876 13.623 6.266 19.275 7.645l-0.654-7.275c1.542 0.635 1.836 2.951 3.319 3.629 6.732 3.071 27.621-11.499 28.516-18.58 0.772-6.115-5.101-4.616-5.337-7.218-0.374-4.107 8.534-13.486 11.64-16.229 3.913-3.455 23.573-18.556 20.887-4.314-0.545 2.892-5.261 5.312-5.257 5.987 0.012 2.146 9.637 5.887 10.311 6.945 0.834 1.307-1.17 4.156-1.077 6.279 0.445 10.313 22.963 10.807 28.252 18.204l-3.17-8.089c-5.039-12.674 0.396-18.956 11.675-23.791 8.53-3.658 21.416-8.673 29.596-2.802 4.849 3.481 15.177 19.015 18.45 20 5.184 1.56 10.259-6.631 16.288-5.008 1.773 0.477 4.112 3.616 6.474 2.182 1.967-1.194 1.054-7.455 2.339-9.597 0.394-0.657 10.107-7.645 12.022-9.52 9.923-9.714 16.797-24.25 31.292-28.027 5.761-1.5 11.416-0.516 15.677-5.542 1.856-2.187 2.699-5.748 4.416-7.51 3.049-3.126 16.43-10.116 21.398-13.736 76.78-55.958 133.748-171.118 129.232-266.261-0.277-5.833-1.572-12.063-2.012-17.851-0.056-0.73-0.532-3.079 0.651-2.966 6.524 27.209 13.401 54.361 18.379 81.933 11.842 65.586 23.611 173.221-31.995 222.454-6.808 6.027-19.188 11.528-23.691 17.41-26.538 34.657-37.535 86.424-78.376 109.786-1.308 0.748-4.961 1.681-5.447 2.51-0.591 1.011-0.261 3.229-0.611 4.685-6.891 28.734-31.506 53.87-46.44 78.767-3.947 6.582-14.214 21.739-1.714 24.428h4.648z" />
</font>
</defs>
</svg>
